#TITLE:AVE AVE;
#SUBTITLE:;
#ARTIST:THE PROPHET;
#TITLETRANSLIT:;
#SUBTITLETRANSLIT:;
#ARTISTTRANSLIT:;
#GENRE:;
#CREDIT:;
#BANNER:cdtitle.png;
#BACKGROUND:;
#LYRICSPATH:;
#CDTITLE:cdtitle.png;
#MUSIC:aveave.mp3;
#OFFSET:0.823;
#SAMPLESTART:58.580;
#SAMPLELENGTH:12.000;
#SELECTABLE:YES;
#BPMS:0.000=164.010;
#STOPS:;
#DELAYS:;
#TIMESIGNATURES:0.000=4=4
;
#BGCHANGES:2.000=flipped.avi=1.000=0=0=1=====,
99999=-nosongbg-=1.000=0=0=0 // don't automatically add -songbackground-
;
#KEYSOUNDS:;
#ATTACKS:;
// cache tags:
#FIRSTBEAT:35.000;
#LASTBEAT:374.000;
#SONGFILENAME:/Songs/TechPara/Ave Ave/aveave.sm;
#HASMUSIC:1;
#HASBANNER:1;
#MUSICLENGTH:141.231;
// end cache tags

//---------------para-single - ----------------
#NOTES:
     para-single:
     :
     Challenge:
     8:
     0.169,0.331,0.085,0.262,0.004,118.000,12.000,37.000,0.000,0.000,0.000,0.000,-1.000,-1.000,0.169,0.331,0.085,0.262,0.004,118.000,12.000,37.000,0.000,0.000,0.000,0.000,-1.000,-1.000:
00000
00000
00000
00000
,
00000
00000
00000
00000
,
00000
00000
00000
00000
,
00000
00000
00000
00000
,
00000
00000
00000
00000
,
00000
00000
00000
00000
,
00000
00000
00000
00000
,
00000
00000
00000
00000
,
00000
00000
00000
00020
,
00030
00000
00000
00002
,
00000
00003
00000
02000
,
03000
00000
00000
20000
,
00000
30000
00000
00000
,
00001
00000
00000
00002
,
00000
00003
00000
00000
,
10000
00000
00000
20000
,
00000
30000
00000
00020
,
00030
00000
00000
00002
,
00000
00003
00000
02000
,
03000
00000
00000
20000
,
00000
30000
00000
00000
,
00001
00000
00000
00002
,
00000
00003
00000
00000
,
10000
00000
00000
20000
,
00000
30000
00000
00020
,
00000
00030
00010
00000
,
00000
00000
00000
02000
,
00000
03000
01000
00000
,
00000
00000
00000
00020
,
00000
00030
00010
00000
,
00000
00000
00000
02000
,
00000
03000
01000
00000
,
00000
00000
00000
00020
,
00000
00030
00010
00000
,
00000
00000
00000
02000
,
00000
03000
01000
00000
,
00000
00000
00000
00020
,
00000
00030
00010
00000
,
00000
00000
00000
02000
,
00000
03000
01000
00000
,
00000
00000
00000
00000
00000
00000
00100
00010
,
00001
00000
00100
01000
00100
00000
00020
00000
,
01030
00000
00000
10001
,
00000
00000
00000
00020
,
01030
00000
00000
00000
00000
00000
01000
10100
,
00010
00010
00000
01000
,
00000
00010
00000
10001
,
00000
00000
00000
00000
00000
00000
00100
00010
,
00010
00000
00000
10001
,
00000
00000
00000
00000
00000
00000
00100
00010
,
01001
00000
00010
00000
,
00000
00000
00000
00010
,
01000
00010
00000
00020
,
00000
00030
00010
00000
,
00000
00000
00000
02000
,
00000
03000
01000
00000
,
00000
00000
00000
00020
,
00000
00030
00010
00000
,
00000
00000
00000
02000
,
00000
03000
01000
00000
,
00000
00000
00000
00020
,
00030
00000
00000
00002
,
00000
00003
00000
02000
,
03000
00000
00000
20000
,
00000
30000
00000
00000
,
00001
00000
00000
00002
,
00003
00000
00000
00000
,
10000
00000
00000
20000
,
30000
00000
00000
00000
,
00000
00000
00000
00000
,
00000
00000
00000
00000
,
00000
00000
00000
00000
,
00000
00000
00000
00000
,
00000
00000
00000
00000
,
00000
00000
00000
00000
,
00000
00000
00000
00000
,
00000
00000
00000
00100
,
00001
00000
00001
00100
,
10000
00000
10000
00020
,
01030
00000
00000
00020
,
01030
00100
01000
00100
,
00001
00000
00001
00100
,
10000
00000
10000
00020
,
01030
00000
00000
00000
00000
00000
00000
00000
00000
00000
00000
00000
00100
01010
10001
00000
,
00000
00000
00000
10001
,
00000
00000
00000
00020
,
01030
00000
00000
00000
00000
00000
01000
10100
,
00010
00010
00000
01000
,
00000
00010
00000
10001
,
00000
00000
00000
00000
00000
00000
00100
00010
,
00010
00000
00000
10001
,
00000
00000
00000
00000
00000
00000
00100
00010
,
01001
00000
00000
00000
,
20000
00000
30000
00000
;
